#TITLE:W;
#SUBTITLE:~Paradox original~;
#ARTIST:Dj Sharpnel & V.A;
#TITLETRANSLIT:;
#SUBTITLETRANSLIT:;
#ARTISTTRANSLIT:;
#CREDIT:;
#BANNER:W.PNG;
#BACKGROUND:W-bg.PNG;
#LYRICSPATH:;
#CDTITLE:Prdx.png;
#MUSIC:W.mp3;
#OFFSET:0.000;
#SAMPLESTART:36.390;
#SAMPLELENGTH:18.000;
#SELECTABLE:YES;
#BPMS:0.000=179.420;
#STOPS:;
#BGCHANGES:;
// cache tags:
#FIRSTBEAT:3.500;
#LASTBEAT:394.500;
#SONGFILENAME:Songs/Chilean Keyboard Megapack 3/(Paradox) W/w.sm;
#HASMUSIC:1;
#HASBANNER:1;
#MUSICLENGTH:132.002;
// end cache tags

//---------------dance-single - Blank----------------
#NOTES:
     dance-single:
     Blank:
     Challenge:
     12:
     1.000,1.000,0.659,0.629,1.000,983.000,87.000,83.000,0.000,0.000:
0000
0000
0000
0000
0000
0000
0000
2002
,
0000
0000
0000
3003
,
0010
0100
1100
0000
0001
0100
0110
0000
,
0010
1000
1100
0000
0010
0001
0101
0000
,
0010
0100
0101
0000
0010
1000
1100
0000
,
0010
0001
1100
0000
0001
0100
0110
0000
,
1000
0001
0110
0000
1000
0100
0110
0000
,
0001
0100
1010
0000
0010
0100
0101
0000
,
0010
0100
1100
0000
0001
0010
1100
0000
,
0001
0100
1010
0000
0010
0100
1001
0000
,
0010
0100
1100
0000
0001
0100
1010
0000
,
0100
0010
0011
0000
0100
1000
1010
0000
,
0100
0001
1001
0000
0100
1000
1010
0000
,
0100
0001
1001
0000
0100
0010
0011
0000
,
0100
0010
1001
0000
0010
0100
1100
0000
,
0001
0100
0110
0000
1000
0100
0110
0000
,
0001
0000
0100
0000
1010
0000
0000
0000
0001
0000
1000
0000
0100
0001
0020
0030
,
0000
0000
0000
0200
2300
3002
0003
0200
,
0300
0020
0030
2000
3000
0200
0300
0020
,
0000
0030
0000
0001
0010
0100
1000
0002
,
0003
0000
0000
0000
0000
0000
0200
0000
0320
0000
1030
0100
0010
0001
0100
0000
,
0000
0000
0000
0020
2030
3020
0030
0200
,
0300
0002
0003
0020
0030
0200
0300
2000
,
3000
0000
0000
0001
0100
0010
1000
0020
,
0030
0000
0200
0000
0300
0000
0002
0000
0003
0000
0010
0000
0100
1000
0002
0000
,
0003
0000
0000
0200
0320
2030
3000
0002
,
0003
0020
0030
0200
0300
2000
3000
0002
,
0003
0000
0000
1000
0010
0100
0001
0200
,
0300
0000
0000
0000
0000
0000
0000
0000
0000
0000
0010
0000
1000
0100
0010
0000
,
0000
0000
0000
0001
0010
0100
0000
0200
,
0300
0020
0030
0002
0003
0200
0300
0020
,
0030
0000
0000
1000
0100
0010
0001
0101
,
0110
1010
1001
0011
0101
0010
1100
0110
,
0000
0000
0000
0000
0000
0000
0000
0000
0000
0000
0000
0000
1000
0001
0100
0010
,
1000
0100
0010
0001
0100
0010
1000
0100
0010
0001
1000
0010
0100
0001
1000
0100
,
1000
0100
0010
0001
0010
0001
0100
0010
0100
0010
1000
0100
1000
0100
0010
0001
,
1000
0100
0010
0001
0100
0010
1000
0001
0010
0100
0010
0001
0100
0001
0010
0100
,
1000
0100
0010
0001
0100
0010
1000
0100
0010
0001
0100
0010
1000
0100
0010
0001
,
0100
0010
1000
0100
0010
0001
1000
0100
1000
0100
0010
0001
0010
0001
0100
0010
,
0100
0010
1000
0100
1000
0100
0010
0001
0100
0010
1000
0100
0010
0001
0100
0010
,
0100
0010
1000
0100
1000
0010
0100
0010
1000
0100
0010
0100
1000
0001
0100
0010
,
1000
0100
0010
0001
1000
0001
1000
0100
1000
0001
0100
0001
1000
0010
1000
0001
,
0100
0001
1000
0100
0010
0001
0010
0100
1000
0100
1000
0001
1000
0001
0100
0001
,
1000
0001
0100
0010
1000
0001
1000
0001
0100
0010
1000
0100
0010
0001
0010
0100
,
1000
0100
1000
0001
0100
0001
1000
0010
1000
0001
0100
0001
1000
0100
1000
0001
,
0100
0001
1000
0100
1000
0001
0100
0001
1000
0001
0100
0001
1000
0010
1000
0001
,
0100
0001
0010
0100
1000
0100
0010
0001
1000
0001
1000
0100
0010
0001
1000
0001
,
0100
0001
0010
0100
1000
0100
0010
0001
0010
0100
0010
0100
0001
1000
0001
0100
,
0001
1000
0010
1000
0001
1000
0100
1000
0001
0100
0001
0010
0100
1000
0100
0010
,
0001
1000
0001
1000
0010
0100
0010
0100
0001
1000
0001
0100
0001
1000
0110
1000
,
0001
0100
0001
1000
0010
1000
0011
0100
0001
1000
0100
0010
0001
1000
0101
1000
,
0001
0010
0100
1000
0100
0010
1001
0010
0001
0010
0001
1000
0100
1000
0011
1000
,
0001
0100
0001
1000
0010
1000
0011
0100
0001
0010
0100
1000
0100
0010
1001
1000
,
0100
0010
0001
0010
0100
1000
0101
1000
0001
0100
0001
1000
0010
1000
0101
0010
,
0001
0010
0100
1000
0001
0100
0011
1000
0010
1000
0001
0100
0001
1000
0101
0010
,
0001
1000
0001
1000
0100
0010
1001
0010
0100
1000
0001
0100
0001
1000
0110
1000
,
0001
0100
0001
0010
0001
1000
0101
1000
0010
1000
0001
0100
0001
1000
0101
0010
,
0001
0010
0100
1000
0001
1000
0011
0100
0001
1000
0010
1000
0001
0100
1001
0010
,
0001
1000
0101
1000
0010
1000
0011
0100
0001
1000
0110
1000
0001
0100
1001
0010
,
0001
0010
0101
1000
0100
1000
0110
1000
0001
0100
0011
1000
0010
1000
1001
0100
,
0001
0010
0101
1000
0100
0010
1001
1000
0001
0100
0011
1000
0010
1000
0101
0010
,
0001
0010
0101
1000
0100
1000
1001
0100
0001
0100
0011
1000
0010
1000
1001
0100
,
0001
1000
0011
1000
0100
0010
0101
1000
0001
0100
0011
1000
0001
0010
0101
1000
,
0100
0010
1001
0010
0100
1000
0110
1000
0001
0100
0011
1000
0100
1000
1001
0010
,
0001
0100
0011
1000
0100
0010
1001
0010
0100
1000
0011
0100
0001
1000
0110
1000
,
0001
0100
0011
1000
0010
1000
0101
0010
0001
0010
0110
1000
0000
0000
0002
0000
,
0000
0000
0000
0003
0000
0020
0030
0002
,
0003
2000
3000
0002
0000
0000
0003
2000
,
3000
0002
0003
2000
3000
0200
0300
2000
,
0000
3000
0000
0002
0000
0003
0000
2000
,
0000
0000
3000
0000
0000
2000
3000
0020
,
0030
2000
3000
0020
0030
0000
0000
0002
,
0003
0200
0300
0020
0030
0002
0003
0200
,
0000
0000
0000
0300
0000
0000
0000
0200
,
0000
0000
0000
0300
0000
0002
0003
0200
,
0300
2000
3000
0200
0000
0000
0300
2000
,
3000
0002
0003
0200
0300
0002
0003
2001
,
0000
3000
0000
0002
0000
0003
0000
0020
,
0000
0000
0000
0030
0000
0002
0003
0200
,
0300
0020
0030
0002
0000
0000
0003
0020
,
0030
2000
3000
0002
0003
2000
3000
0020
,
0000
0000
0000
0000
0030
0000
0001
0000
0000
0000
0100
0000
0000
0000
1000
0001
,
1000
0001
0100
0001
1000
0010
1000
0001
0100
0001
1000
0010
1000
0001
0100
0001
,
1000
0010
1000
0100
1000
0001
0100
0001
1000
0010
1000
0001
0100
0001
1000
0010
,
1000
0100
1000
0010
1000
0001
0100
0001
0010
0001
1000
0100
1000
0001
0100
0001
,
0010
0100
1000
0100
0010
0001
0010
0100
1000
0001
0100
0001
1000
0100
0010
0001
,
0010
0100
1000
0001
0100
0001
1000
0100
1000
0001
0010
0100
1000
0100
1000
0001
,
0100
0001
1000
0100
0010
0001
1000
0001
0100
0001
1000
0001
0010
0100
1000
0001
,
0100
0001
1000
0010
1000
0001
0100
0001
1000
0001
1000
0001
0100
0001
1000
0010
,
1000
0001
1000
0001
0100
0001
0010
0001
1000
0100
1000
0010
1000
0001
0100
0001
,
1000
0100
0010
0001
0010
0100
1000
0100
0010
0001
1000
0001
0100
0001
1000
0100
,
0010
0001
1000
0001
0100
0001
1000
0100
1000
0001
0100
0001
1000
0100
1000
0100
,
1000
0001
0100
0001
0010
0001
0010
0001
1000
0100
0010
0001
0010
0100
1000
0001
,
0100
0001
1000
0100
1000
0001
1000
0001
0100
0001
1000
0001
1000
0010
1000
0100
,
1000
0001
0100
0001
1000
0010
1000
0001
0100
0001
1000
0010
1000
0001
0100
0001
,
1000
0001
0100
0001
0010
0100
1000
0100
0010
0001
0010
0100
1000
0100
1000
0001
,
0100
0001
1000
0010
1000
0100
1000
0001
0100
0001
1000
0010
1000
0001
0100
0001
,
1000
0100
1000
0001
1000
0001
0010
0100
1000
0100
0010
0001
1000
0001
2000
0000
,
0000
0000
0000
0000
0000
3000
0000
0000
;
